Skip to main content

Camper Van Beethoven Live at KZSC Studio on 1985-02-22




01. Mao Reminisces.. (in progress)
02. Yanqui Go Home
03. Balalaika Gap
04. drum machine broke down banter
05. Where The Hell Is Bill?
06. Lassie Went To The Moon
07. Down & Out
08. tuning and banter
09. We Eat Your Children
10. Ambiguity Song (in progress)
11. No Kruggerrands For David
12. Sad Lover's Waltz
13. Take The Skinheads Bowling
14. 9 of Discs


Collection CamperVanBeethoven
Band/Artist Camper Van Beethoven
Venue KZSC Studio
Location Santa Cruz, CA

Source FM > Cassette (3rd gen)
Lineage Cassette > Audacity > FLAC
Transferred by Noodles

Notes

Third generation cassette (azimuth corrected) > Sony WM-D6C > Diamond XS 7.1DDL soundcard > Audacity > FLAC 8 > DVD-R

Transfered by Noodles (noodlz@bigfoot.com) January 2008, edited by TAS aka morst using Audacity

Notes:
There was a bit of extra material between tracks 9 & 10, which I removed. Sounded like it was a bit of audio from the broadcast, but it was not CVB material. It was not complete, and didn't seem like it would improve the fileset to include it.

shntool results:
length expanded size cdr WAVE problems fmt ratio filename
1:25.64 15144572 B --- -- ---xx CVB1985-02-22t01.flac
2:54.61 30837116 B --- -- ---xx CVB1985-02-22t02.flac
2:49.02 29816348 B --- -- ---xx CVB1985-02-22t03.flac
0:53.69 9511532 B --- -- ---xx CVB1985-02-22t04.flac
2:03.13 21727820 B --- -- ---xx CVB1985-02-22t05.flac
3:39.46 38739836 B --- -- ---xx CVB1985-02-22t06.flac
2:04.32 21948908 B --- -- ---xx CVB1985-02-22t07.flac
1:18.02 13763948 B --- -- ---xx CVB1985-02-22t08.flac
4:12.68 44612780 B --- -- ---xx CVB1985-02-22t09.flac
2:08.39 22670972 B --- -- ---xx CVB1985-02-22t10.flac
2:31.35 26718764 B --- -- ---xx CVB1985-02-22t11.flac
4:26.64 47072972 B --- -- ---xx CVB1985-02-22t12.flac
2:43.29 28821452 B --- -- ---xx CVB1985-02-22t13.flac
3:02.26 32165996 B --- -- ---xx CVB1985-02-22t14.flac
36:14.25 383553016 B 0.5997 (14 files)

Reviews

Reviewer: njpg - - January 17, 2012
Subject: Shrieky,
Grainy recording. Not a bad listen.
PEOPLE ALSO FOUND
Camper Van Beethoven
by Camper Van Beethoven
9,936
0
1
( 1 reviews )
Source: Sony ECM-717 > Sharp MD-MT190MD
Camper Van Beethoven
by Camper Van Beethoven
2,674
0
1
( 1 reviews )
Source: Sony ECM-717 > Sharp Minidisc MD-MT190
Camper Van Beethoven
by Camper Van Beethoven
407
0
0
Camper Van Beethoven
by Camper Van Beethoven
344
0
0
Source: audience > Sony WM-D6c > MCAS
Camper Van Beethoven
by Camper Van Beethoven
145
0
0
Source: soundboard > Sony D5 > TDK MA90 cassette master tape
Camper Van Beethoven
by Camper Van Beethoven
1,831
1
0
Source: SBD
Camper Van Beethoven
by Camper Van Beethoven
1,556
1
0
Source: DPA 4061 > Sony PCM-D50 > WAV @48/24
Camper Van Beethoven
by Camper Van Beethoven
690
2
0
Source: KM140's > MV100 > PCM-M10 (EMTEN) > WAV @2448
Camper Van Beethoven
by Camper Van Beethoven
331
1
0
Source: DPA 4061 mics upstairs > Sony PCM-D50 > WAV @48/24
Camper Van Beethoven
by Camper Van Beethoven
4,770
1
2
( 2 reviews )
Source: DSM6 -> PACLC -> M1